↑ ↓

Фильмы Охота на Унабомбера / Manhunt: Unabomber (2017) WEBRip [H.264/1080p-LQ] (сезон 1, серии 1-5...

Тема в разделе "Сериалы", создана пользователем Юлия, 25 авг 2017.

  1. Юлия Local Intranet

    Юлия Local Intranet Администратор

    Страна:
    Local Intranet
    Регистрация:
    3 май 2015
    Сообщения:
    219
    Симпатии:
    48
    Dislikes Received:
    0
    Баллы:
    18
    Пол:
    Женский
    0_485d1d_87a20256_XL.jpg

    Производство: США, Discovery Communications, Trigger Street Productions
    Жанр: драма, криминал
    Режиссер: Грег Яйтанс
    Актеры: Пол Беттани, Сэм Уортингтон, Джейн Линч, Лорен Франдсен, Роуэн Бусед, Дизель, Яна Аллен, Грифф Ферст, Ребекка Хендерсон, Бонни Джонсон и др.

    Описание:
    История противостояния офицера ФБР Джима Фицджеральда и опасного преступника Теодора Качински по прозвищу Унабомбер, рассылавшего по почте самодельные бомбы.

    [​IMG]

    Дата мировой премьеры: 1 августа 2017

    Продолжительность: ~00:43:00 серия
    Качество видео: WEBRip
    Перевод: многоголосый закадровый, профессиональный - BaibaKo
    Субтитры: английские

    Видео: AVC/H.264, 1920x1080, ~8855 Kbps
    Аудио #1: AC3, 384 kbps, 2 ch, 48 kHz - русский, многоголосый закадровый
    Аудио #2: AC3, 384 kbps, 2 ch, 48 kHz - английский

    Общее
    Уникальный идентификатор : 206487661074881745884151178425359557238 (0x9B5813B3B852A6C785877D4C5B326276)
    Полное имя : G:\Manhunt. Unabomber - Охота на Унабомбера. Сезон 1. BaibaKo. 1080p\Manhunt.Unabomber.s01e01.WEBRip.1080p.BaibaKo.mkv
    Формат : Matroska
    Версия формата : Version 4 / Version 2
    Размер файла : 2,93 Гбайт
    Продолжительность : 42 м. 41 с.
    Режим общего битрейта : Переменный
    Общий поток : 9819 Кбит/сек
    Название фильма : Manhunt: Unabomber s01e01 @ NNM-Club
    Дата кодирования : UTC 2017-08-03 08:14:38
    Программа кодирования : mkvmerge v6.9.1 ('Blue Panther') 64bit built on Apr 18 2014 18:23:38
    Библиотека кодирования : libebml v1.3.0 + libmatroska v1.4.1

    Видео
    Идентификатор : 1
    Формат : AVC
    Формат/Информация : Advanced Video Codec
    Профиль формата : High@L4
    Параметр CABAC формата : Да
    Параметр ReFrames формата : 4 кадра
    Идентификатор кодека : V_MPEG4/ISO/AVC
    Продолжительность : 42 м. 41 с.
    Вид битрейта : Переменный
    Битрейт : 8855 Кбит/сек
    Максимальный битрейт : 15,0 Мбит/сек
    Ширина : 1920 пикселей
    Высота : 1080 пикселей
    Соотношение сторон : 16:9
    Режим частоты кадров : Постоянный
    Частота кадров : 23,976 (24000/1001) кадра/сек
    Цветовое пространство : YUV
    Субдискретизация насыщенности : 4:2:0
    Битовая глубина : 8 бит
    Тип развёртки : Прогрессивная
    Бит/(Пиксели*Кадры) : 0.178
    Размер потока : 2,64 Гбайт (90%)
    Язык : English
    Default : Да
    Forced : Нет
    Цветовой диапазон : Limited
    Основные цвета : BT.709
    Характеристики трансфера : BT.709
    Коэффициенты матрицы : BT.709

    Аудио #1
    Идентификатор : 2
    Формат : AC-3
    Формат/Информация : Audio Coding 3
    Параметр Endianness формата : Big
    Идентификатор кодека : A_AC3
    Продолжительность : 42 м. 41 с.
    Вид битрейта : Постоянный
    Битрейт : 384 Кбит/сек
    Каналы : 2 канала
    Расположение каналов : Front: L R
    Частота : 48,0 КГц
    Частота кадров : 31,250 кадров/сек (1536 spf)
    Битовая глубина : 16 бит
    Метод сжатия : С потерями
    Размер потока : 117 Мбайт (4%)
    Язык : Russian
    ServiceKind/String : Complete Main
    Default : Да
    Forced : Нет

    Аудио #2
    Идентификатор : 3
    Формат : AC-3
    Формат/Информация : Audio Coding 3
    Параметр Endianness формата : Big
    Идентификатор кодека : A_AC3
    Продолжительность : 42 м. 41 с.
    Вид битрейта : Постоянный
    Битрейт : 384 Кбит/сек
    Каналы : 2 канала
    Расположение каналов : Front: L R
    Частота : 48,0 КГц
    Частота кадров : 31,250 кадров/сек (1536 spf)
    Битовая глубина : 16 бит
    Метод сжатия : С потерями
    Размер потока : 117 Мбайт (4%)
    Язык : English
    ServiceKind/String : Complete Main
    Default : Нет
    Forced : Нет

    Текст
    Идентификатор : 4
    Формат : UTF-8
    Идентификатор кодека : S_TEXT/UTF8
    Идентификатор кодека/Информация : UTF-8 Plain Text
    Язык : English
    Default : Нет
    Forced : Нет
    1. UNABOM
    2. Pure Wudder
    3. Fruit of the Poisonous Tree
    4. Publish or Perish
    5. Abri

    Скриншоты:

    2294c1fd454e.png a25ca7565fc6.png b28309961875.png dd028093296f.png
     

    Вложения:

    #1
    Последнее редактирование модератором: 25 авг 2017

Поделиться этой страницей

Рейтинг@Mail.ru Яндекс.Метрика
  • «abc»