↑ ↓

Фильмы Одним меньше / dead man down...

Тема в разделе "Боевики", создана пользователем Admin, 22 апр 2015.

  1. Admin

    Admin Команда форума Супер - админ

    Регистрация:
    2 июл 2013
    Сообщения:
    7.394
    Симпатии:
    20
    Баллы:
    38
    Пол:
    Мужской
    [​IMG]

    Производство:
    США
    Жанр: Боевик, триллер, драма, криминал
    Режиссер: Нильс Арден Оплев
    Актеры: Колин Фаррелл, Нуми Рапас, Доминик Купер, Терренс Ховард, Изабель Юппер, Луис Да Силва мл., Стью Беннетт, Фрэнки Джи, Джон Ченатьемпо


    Описание:
    История человека по имени Виктор, он правая рука лидера преступной группировки из Нью-Йорка. Виктор неспроста оказался в криминальном синдикате: мафия уничтожила его семью, поэтому он хочет отомстить. Об этом узнает загадочная Беатрис, соблазняет его и шантажирует. Однако у героев только одна цель в жизни — месть. И она приведет их к кровавой развязке.

    [​IMG] [​IMG]

    Продолжительность: 01:57:49
    Качество видео: BDRip
    Перевод: Авторский одноголосый (А. Гаврилов)
    Видео: XviD, 720x304, 1383 Кбит/с
    Аудио: AC3, 6 ch, 384 Кбит/с

    Код:
    Общее
    Полное имя :Одним меньше\Odnim menjshe 2013 BDRip.avi
    Формат : AVI
    Формат/Информация : Audio Video Interleave
    Размер файла : 1,46 Гбайт
    Продолжительность : 1 ч. 57 м.
    Общий поток : 1777 Кбит/сек
    Программа кодирования : VirtualDubModRus 1.5.10.2 (build 2542/release)
    Библиотека кодирования : VirtualDubMod build 2542/release
    
    Видео
    Идентификатор : 0
    Формат : MPEG-4 Visual
    Профиль формата : Advanced Simple@L5
    Параметр BVOP формата : 1
    Параметр QPel формата : Нет
    Параметр GMC формата : Без точки перехода
    Параметр матрицы формата : Выборочная
    Идентификатор кодека : XVID
    Идентификатор кодека/Подсказка : XviD
    Продолжительность : 1 ч. 57 м.
    Битрейт : 1383 Кбит/сек
    Ширина : 720 пикселей
    Высота : 304 пикселя
    Соотношение сторон : 2,35:1
    Частота кадров : 23,976 кадра/сек
    Цветовое пространство : YUV
    Субдискретизация насыщенности : 4:2:0
    Битовая глубина : 8 бит
    Тип развёртки : Прогрессивная
    Метод сжатия : С потерями
    Бит/(Пиксели*Кадры) : 0.264
    Размер потока : 1,14 Гбайт (78%)
    Библиотека кодирования : XviD 65
    
    Аудио
    Идентификатор : 1
    Формат : AC-3
    Формат/Информация : Audio Coding 3
    Расширение режима : CM (complete main)
    Идентификатор кодека : 2000
    Продолжительность : 1 ч. 57 м.
    Вид битрейта : Постоянный
    Битрейт : 384 Кбит/сек
    Каналы : 6 каналов
    Расположение каналов : Front: L C R, Side: L R, LFE
    Частота : 48,0 КГц
    Битовая глубина : 16 бит
    Метод сжатия : С потерями
    Размер потока : 324 Мбайт (22%)
    Выравнивание : Разделение по промежуткам
    Продолжительность промежутка : 42 мс. (1,00 видеокадр)
    Время предзагрузки промежутка : 500 мс.
    Заголовок : AVO


    Размер: 1,46 GB
     
    #1
    Последнее редактирование модератором: 22 апр 2015

Поделиться этой страницей

Рейтинг@Mail.ru Яндекс.Метрика
  • «abc»