↑ ↓

Фильмы Кровоточащая сталь / Ji qi zhi xue / Bleeding Steel (2017) WEBRip [H.264/1080p-LQ]

Тема в разделе "Боевики", создана пользователем Admin, 12 мар 2018.

  1. Admin

    Admin Команда форума Супер - админ

    Регистрация:
    2 июл 2013
    Сообщения:
    7.639
    Симпатии:
    25
    Баллы:
    48
    Пол:
    Мужской
    0_4fc295_95b9ab2a_orig.jpg

    Производство: Китай, Гонконг / 58 Pictures, Dadi Film Group, Funhigh Media Tech
    Жанр: Боевик, Фантастика, Триллер
    Режиссер: Чжан Лицзя
    Продюсер: Пол Карри, Лю Кайло, Javier Zhang, ...
    Актеры: Джеки Чан, Каллэн Мулвей, Тесс Хобрич, Kaitlyn Boyé, Дэмиен Гарви, Ким Джинджелл, Ольга Миллер, Шоу Ло, Isabelle Wojciechowska, Брахим Ачаббаке ...

    Описание:
    Крутой агент спецназа пытается защитить молодую женщину от криминальной группировки. И в то же время он чувствует с ней странную связь, как будто они встречались в другой жизни.

    [​IMG]
    Дата мировой премьеры: 22.12.2017
    Дата российской премьеры: неизвестно

    Продолжительность: 01:49:17
    Качество видео: WEBRip
    Перевод: Многоголосый закадровый (HDrezka Studio)
    Субтитры: Английские, Китайские (вшитые, не отключаемые)

    Видео: AVC, 1920x816 (2.35:1), 25.000 fps, 2 596 Kbps
    Аудио: AC3, 2 ch, 192 Kbps

    Общее
    Уникальный идентификатор : 174871936346504985258948008250095102841 (0x838F1C20109C0EE150574265DF76EB79)
    Полное имя : E:\Bleeding.Steel.2017.1080p.WEBRip.x264.mkv
    Формат : Matroska
    Версия формата : Version 4 / Version 2
    Размер файла : 2,13 Гбайт
    Продолжительность : 1 ч. 49 м.
    Общий поток : 2790 Кбит/сек
    Дата кодирования : UTC 2018-03-04 15:17:28
    Программа кодирования : mkvmerge v21.0.0 ('Tardigrades Will Inherit The Earth') 64-bit
    Библиотека кодирования : libebml v1.3.5 + libmatroska v1.4.8

    Видео
    Идентификатор : 1
    Формат : AVC
    Формат/Информация : Advanced Video Codec
    Профиль формата : High@L4
    Настройки формата : CABAC / 4 Ref Frames
    Параметр CABAC формата : Да
    Параметр RefFrames формата : 4 кадра
    Идентификатор кодека : V_MPEG4/ISO/AVC
    Продолжительность : 1 ч. 49 м.
    Битрейт : 2596 Кбит/сек
    Ширина : 1920 пикселей
    Высота : 816 пикселей
    Соотношение сторон : 2,35:1
    Режим частоты кадров : Постоянный
    Частота кадров : 25,000 кадров/сек
    Цветовое пространство : YUV
    Субдискретизация насыщенности : 4:2:0
    Битовая глубина : 8 бит
    Тип развёртки : Прогрессивная
    Бит/(Пиксели*Кадры) : 0.066
    Размер потока : 1,98 Гбайт (93%)
    Язык : Chinese
    Default : Да
    Forced : Нет

    Аудио
    Идентификатор : 2
    Формат : AC-3
    Формат/Информация : Audio Coding 3
    Идентификатор кодека : A_AC3
    Продолжительность : 1 ч. 49 м.
    Вид битрейта : Постоянный
    Битрейт : 192 Кбит/сек
    Каналы : 2 канала
    Расположение каналов : Front: L R
    Частота : 48,0 КГц
    Частота кадров : 31,250 кадров/сек (1536 SPF)
    Битовая глубина : 16 бит
    Метод сжатия : С потерями
    Задержка видео : -123 мс.
    Размер потока : 150 Мбайт (7%)
    Заголовок : MVO | HDrezka Studio
    Язык : Russian
    ServiceKind/String : Complete Main
    Default : Да
    Forced : Нет

    Скриншоты:

    2D1BL.png 2D1BN.png 2D1BQ.png 2D1BS.png
     

    Прикреплённые файлы:

    #1

Поделиться этой страницей

Рейтинг@Mail.ru Яндекс.Метрика
  • «abc»